#TITLE:Kiss Me;
#SUBTITLE:;
#ARTIST:As One;
#TITLETRANSLIT:Kiss Me;
#SUBTITLETRANSLIT:;
#ARTISTTRANSLIT:As One;
#CREDIT:;
#BANNER:Kiss Me-bn.png;
#BACKGROUND:Kiss Me-bg.png;
#LYRICSPATH:;
#CDTITLE:pm4cd.png;
#MUSIC:Kiss Me.mp3;
#OFFSET:0.100;
#SAMPLESTART:68.053;
#SAMPLELENGTH:20.000;
#SELECTABLE:YES;
#BPMS:0.000=134.010,381.750=67.010,383.750=134.010;
#STOPS:;
#BGCHANGES:;
// cache tags:
#FIRSTBEAT:33.750;
#LASTBEAT:447.750;
#SONGFILENAME:Songs/Music V.I.P ^_^/Kiss Me/Kiss Me.sm;
#HASMUSIC:1;
#HASBANNER:1;
#MUSICLENGTH:202.122;
// end cache tags

//---------------dance-single - ----------------
#NOTES:
     dance-single:
     :
     Hard:
     15:
     1.000,1.000,1.000,0.119,1.000,1166.000,453.000,24.000,0.000,67.000:
0000
0000
0000
0000
,
0000
0000
0000
0000
,
0000
0000
0000
0000
,
0000
0000
0000
0000
,
0000
0000
0000
0000
,
0000
0000
0000
0000
,
0000
0000
0000
0000
,
0000
0000
0000
0000
,
0000
0000
0000
0000
0000
0000
0000
0011
0000
0110
0000
1100
0000
0110
0000
0011
,
0110
1100
0110
0011
0110
1100
0110
0011
0000
1000
0100
0010
0001
1000
0100
1010
,
0001
1010
0000
0011
0000
0011
0000
1101
0000
0010
0001
1100
0010
0001
0100
1010
,
0001
0100
1000
0011
1000
0100
0010
1001
0000
0100
0000
0011
0000
0100
0000
1010
,
0000
0001
0000
0110
0000
1000
0000
0011
1000
0100
0001
1010
0100
0010
1000
0101
,
0010
0001
0010
1001
0010
0100
1000
0011
0000
1000
0000
1001
0000
0010
0000
1100
,
0000
0001
0000
0110
0000
1000
0000
0101
0010
0100
1000
0110
0001
0100
1000
0011
,
0100
0010
1000
0101
0010
0100
1000
0011
0000
1000
0000
1001
0000
0010
0000
1100
,
0000
0001
0000
1010
0000
1000
0000
0101
0010
0100
1000
1001
0010
0100
1000
1010
,
0100
0010
0001
1001
0100
0010
0001
2210
0000
0000
0000
0000
0000
0000
0000
3311
,
0000
0011
0000
1000
0100
0010
0100
1011
0100
1000
0100
0011
0100
1000
0100
0011
,
0100
1000
0100
0011
0100
1000
0100
1001
0100
0010
0100
1001
0100
0010
0100
1001
,
0000
0000
0000
0110
0000
0001
0000
1100
0010
0001
0010
1100
0010
0001
0010
1100
,
0010
0100
1000
0101
0010
0100
1000
1101
0010
0100
1000
0001
0010
0100
1000
0101
,
0010
0101
1000
0001
0010
0101
1000
0110
0000
0010
0000
1100
0000
0001
0000
1010
,
0000
0100
0000
1001
0000
0010
0000
1100
0000
0001
0000
1010
0000
0100
0000
0011
,
0000
1000
0000
1001
0000
0100
0000
0011
0000
1000
0000
0101
0000
0010
0000
1100
,
0000
0001
0000
1010
0000
0100
0000
1001
0000
0001
0000
1100
0000
0010
0000
0101
,
0000
1000
0000
1001
0000
0100
0000
0011
0000
0100
0000
1010
0000
0001
0000
1001
,
0000
0010
0000
0101
0000
1000
0000
0011
0000
0100
0000
1010
0000
1000
0000
1001
,
0000
0010
0000
1100
0000
0001
0000
0101
0000
0010
0000
1100
0000
1000
0000
1001
,
0000
0100
0000
0011
0000
1000
0000
1001
0000
0010
0000
1100
0000
0001
0000
1010
,
0000
0110
0000
0101
0000
0110
0000
1010
0001
0100
1000
0100
0010
0100
1000
0220
,
0000
0000
0000
1331
0000
0100
0100
0011
0100
0010
0001
0010
0100
0010
0001
2020
,
0000
0000
0000
3131
0000
1000
0000
0101
0000
0010
0000
1100
0000
0001
0000
1001
,
0000
0100
0000
0011
0000
0100
0000
0110
0000
0010
0000
1001
0000
0010
0000
1010
,
0000
0001
0000
0101
0000
0010
0000
1100
0000
1000
0000
0101
0000
0010
0000
1001
,
0000
0010
0000
1100
0000
0100
0000
0101
0000
0010
0000
1001
0000
0100
0000
1010
,
0000
0001
0000
0110
0000
1000
0000
1001
0000
0100
0000
0101
0000
1000
0000
1010
,
0000
0001
0000
0011
0000
1000
0000
1011
0000
0100
0000
1000
0100
0010
0001
1010
,
0100
1010
0001
1000
0100
1010
0001
1110
0001
0110
1000
0110
0001
0110
1000
0110
,
0001
0110
1000
0110
0001
0110
1000
0110
0001
0010
0100
1001
0100
0010
0001
1010
,
0000
0000
0000
0101
0000
1001
0100
1001
0010
1001
0100
1001
0010
1001
0100
1001
,
0010
1001
0100
1001
0010
1001
0100
1001
0010
1001
0100
1001
0000
0010
0000
1100
,
0000
0000
0000
0011
0000
1000
0000
1010
0100
0011
1000
0011
0100
0011
1000
0011
,
0100
0011
1000
0011
0100
0011
1000
0011
0100
1000
0100
0010
0001
0010
0100
1010
,
0000
0000
0000
0101
0000
0000
0000
0001
1000
0001
1000
0001
1000
0001
1000
0010
,
0100
0010
0100
0010
0100
0010
0100
1011
0100
0010
0001
0010
0100
1000
0100
0011
,
0100
0011
0100
1010
0100
0010
0001
1110
0000
0001
0010
1100
0000
0100
0000
0101
,
0000
1000
0000
0110
0000
0001
0000
0101
0000
0010
0001
1100
0000
0001
0000
0101
,
0000
0010
0000
1100
0000
0100
0000
1001
0000
0101
0000
0101
0000
1000
0100
0010
,
0001
0010
0100
1000
0100
0010
0001
1100
0000
0001
0000
0011
0000
0100
0000
1010
,
0000
0100
0010
1001
0000
0010
0000
1100
0000
1000
0010
0101
0000
0010
0100
1001
,
0010
0100
1000
0011
0100
0010
0001
0110
0000
1000
0100
1010
0100
0001
1000
0011
,
1000
0100
0010
1001
0100
0010
0100
1010
0000
0001
1000
0110
0001
0010
0100
1010
,
0100
0010
0001
1100
0010
0001
0010
0101
1000
0100
0010
0001
0010
0100
1000
0101
,
0010
0101
0000
1100
0010
1100
0010
1101
0010
0100
1000
0100
0010
0001
0010
0100
,
0010
0001
0000
1010
0000
0100
0000
0011
0000
1000
0100
0010
0100
1000
0100
0011
,
0000
0000
0000
1100
0000
0001
0000
0101
0010
1000
0100
0001
0010
1000
0100
0001
,
0010
1000
0100
0011
0000
1000
0000
1010
0000
0100
0000
1001
0000
1001
0000
1100
,
0000
0000
0000
0101
0000
0000
0000
1001
0010
0100
1000
0100
0010
0001
0010
0100
,
0010
0100
1000
0100
0010
0100
1000
0100
0010
0100
0010
0001
0010
0100
0010
0001
,
0010
0100
0010
0100
1000
0100
0000
0101
1000
0100
0010
0001
0010
0100
1000
0001
,
0010
0100
1000
0001
0010
0100
1000
0122
0000
0000
0000
0000
0000
0000
0000
1133
,
0000
1100
0000
0001
0010
0001
0000
2110
0000
0010
0000
0001
0000
0010
0000
0010
,
0000
0100
0000
0010
0000
0100
0000
3012
0000
0100
0000
1000
0000
0010
0000
0100
,
0000
0010
0000
1000
0000
0100
0000
1023
0000
0100
0000
0101
0000
1000
0000
1100
,
0000
0001
0000
1001
0000
0100
0000
0131
0000
0000
0000
1010
0000
0000
0000
0101
,
0010
0100
1000
0001
0000
0110
0000
0012
0000
0000
0000
1010
0000
0000
0000
1100
,
0000
0000
0000
0110
0000
0000
0000
1023
0000
0000
0000
1001
0000
0000
0000
0101
,
0000
0000
0000
1100
0000
0000
0000
0231
0000
0000
0000
1001
0000
0000
0000
1010
,
0000
0000
0000
0011
0000
0000
0000
2301
0000
0000
0000
0110
0000
0000
0000
0011
,
0000
0000
0000
0101
0000
0000
0000
3110
0001
0010
0100
1000
0100
0010
0100
0022
,
0000
0000
0000
1133
0000
0010
0010
0101
0010
0100
0010
0001
0010
0100
0010
2200
,
0000
0000
0000
3311
0000
0000
0000
1000
0100
0010
0100
0010
0001
0010
0100
0010
,
0100
1000
0001
0010
0100
0010
0001
0002
1000
0100
0010
0100
1000
0100
0010
1103
,
0000
0001
0010
0100
0000
0101
0000
1010
0000
0010
0000
1100
0000
0001
0000
1010
,
0000
0010
0000
1100
0000
1000
0000
1001
0000
0001
0000
0101
0000
0100
0000
0011
,
0000
1000
0000
0110
0000
0001
0000
1010
0000
0100
0000
1100
0000
0001
0000
1010
,
0000
0100
0000
1001
0000
0010
0000
1101
0000
0010
0000
1000
0100
0010
0001
1010
,
0100
1010
0001
1000
0100
1010
0001
1110
0001
1100
0010
1100
0001
1100
0010
1100
,
0001
1100
0010
1100
0001
1100
0010
1100
0001
1100
0010
1100
0001
1100
0010
1001
,
0000
0000
0000
1100
0000
0001
0010
1101
0010
0101
1000
0101
0010
0101
1000
0101
,
0010
1100
0001
1010
0100
1001
0010
0101
1000
0101
0010
0101
1000
0101
0010
1001
,
0000
0000
0000
0101
0000
1000
0100
1011
0100
1010
0001
1100
0010
0101
1000
0101
,
0010
1001
0100
1010
0001
1010
0100
0011
1000
0101
0010
1001
0100
1010
0001
1100
,
0000
0000
0001
0001
0000
0000
1000
1100
0000
0000
0000
0110
0000
0000
0000
0011
,
0000
0000
0000
0100
0000
0010
0000
1101
0000
0000
0000
0110
0000
0001
0010
0101
,
1000
0101
0010
0100
0010
0001
0001
0011
0000
1000
0000
0101
0000
0010
0000
1100
,
0000
0001
0000
1001
0000
0100
0000
0011
0000
1000
0000
1010
0000
0100
0000
0011
,
0000
0001
0000
1001
0000
0100
0000
0011
0000
0010
0000
1001
0000
0100
0000
0011
,
0000
1000
0000
0101
0000
0010
0000
1010
0000
1000
0000
0101
0000
0010
0000
1100
,
0000
0001
0000
0110
0000
1000
0000
1011
0000
0100
0000
1010
0000
0010
0000
1001
,
0000
0100
0000
0011
0000
1000
0000
0110
0000
0001
0000
1010
0000
0100
0000
1100
,
0000
0001
0000
1010
0000
0100
0000
0011
0000
1000
0000
0110
0000
0001
0000
1010
,
0000
0010
0000
1001
0000
0010
0000
1101
0000
0001
0010
0100
1000
0001
0010
0101
,
1000
0101
0010
0100
1000
0101
0010
1101
0000
1100
0000
1100
0000
1100
0000
0011
,
0011
0011
0011
0011
0011
0011
0000
2020
0000
0100
0100
0000
0001
0100
0001
3131
,
1000
0101
0010
0101
1000
0101
0010
0101
1000
0101
0010
0101
1000
0101
0010
0101
,
1000
0101
0010
0101
1000
0101
0010
0101
0000
0000
0000
1100
0000
0100
0010
1101
,
0010
1001
0100
1001
0010
1001
0100
1001
0010
1001
0100
1001
0010
1001
0100
1001
,
0010
1001
0000
1001
0000
1001
0000
1001
0000
0000
0000
0101
0000
0100
1000
0111
,
1000
0011
0100
0011
1000
0011
0100
0011
1000
0011
0100
0011
1000
0011
0100
0011
,
1000
0011
0100
0011
1000
0011
0100
0011
1000
0011
0100
0011
0000
1100
0000
0010
,
1000
0010
1000
0010
1000
0010
1000
0100
0001
0100
0001
0100
0001
0100
0001
1110
,
0000
1000
0000
0101
0000
0010
0000
0011
0000
0011
0000
1000
0100
1000
0100
1011
,
0100
1010
0001
1010
0100
0011
1000
0101
0010
1001
0100
1010
0001
1001
0100
0011
,
1000
0101
0010
1001
1000
0101
0010
1100
0000
0001
0000
0101
0000
0010
0001
1110
,
0001
1010
0100
1001
0001
0110
0100
1001
0010
0101
1000
0011
0100
1010
0001
1010
,
0100
1100
0000
1100
0000
0000
0000
0011
0000
0000
0000
1100
0000
0010
0100
1011
,
0100
1010
0001
0011
0100
1001
0010
0101
1000
1001
0010
0101
1000
0101
0010
1100
,
0001
1010
0100
1001
0010
0101
1000
0011
0000
1000
0100
0010
0001
0001
0010
1100
,
0010
0001
0010
0011
0100
1000
0100
1010
0010
0100
1000
0101
0010
0001
0010
2102
,
0010
0100
0010
0100
0000
0000
0000
0010
0000
0000
0000
0100
0000
0000
0000
3003
;
